AcasaAcasa  PortalPortal  FAQFAQ  CautareCautare  MembriMembri  GrupuriGrupuri  ContactContact  InregistrareInregistrare  ConectareConectare  




Distribuiţi|

[film]Paranormal Activity 3 2011 TS XviD - MiSTERE

Vezi subiectul anterior Vezi subiectul urmator In jos
AutorMesaj

Administrator
avatar

Rank: Administrator
Warn :
Detinator steam? : da
Varsta : 25
Mesaje : 209
Reputatie : 10
Arma Preferata : M4A1
Localizare : constanta
Stare de spirit : Buna
Data de inscriere : 18/07/2011
MesajSubiect: [film]Paranormal Activity 3 2011 TS XviD - MiSTERE Mar 20 Dec 2011, 22:50

Descarcare : [Trebuie sa fiti inscris si conectat pentru a vedea acest link]

Subtitrare : [Trebuie sa fiti inscris si conectat pentru a vedea acest link]

[Trebuie sa fiti înscris şi conectat pentru a vedea această imagine]
[Trebuie sa fiti înscris şi conectat pentru a vedea această imagine]
[Trebuie sa fiti înscris şi conectat pentru a vedea această imagine]

Paranormal Activity 3 2011 TS XviD - MiSTERE

[Trebuie sa fiti inscris si conectat pentru a vedea acest link]

Video
ID : 0
Format : MPEG-4 Visual
Format profile : Advanced Simple@L5
Format settings, BVOP : 2
Format settings, QPel : No
Format settings, GMC : No warppoints
Format settings, Matrix : Default (H.263)
Muxing mode : Packed bitstream
Codec ID : XVID
Codec ID/Hint : XviD
Duration : 1h 18mn
Bit rate : 2 645 Kbps
Width : 720 pixels
Height : 384 pixels
Display aspect ratio : 1.875
Frame rate : 25.000 fps
Color space : YUV
Chroma subsampling : 4:2:0
Bit depth : 8 bits
Scan type : Progressive
Compression mode : Lossy
Bits/(Pixel*Frame) : 0.383
Stream size : 1.45 GiB (95%)
Writing library : XviD 64

Audio
ID : 1
Format : MPEG Audio
Format version : Version 1
Format profile : Layer 3
Mode : Joint stereo
Mode extension : MS Stereo
Codec ID : 55
Codec ID/Hint : MP3
Duration : 1h 18mn
Bit rate mode : Constant
Bit rate : 128 Kbps
Channel(s) : 2 channels
Sampling rate : 44.1 KHz
Compression mode : Lossy
Stream size : 71.9 MiB (5%)
Alignment : Split accross interleaves
Interleave, duration : 40 ms (1.00 video frame)


Thanks to RELiZLABS for the source files
Cropped resized sharpened and tweaked RGB
Overall not a bad video, nothing missing and
if it werent for the slight hotspots and flicker
from time to time it would be very nice.

____________
Va ajut cu o singura conditie ajutati si voi pe altii [Trebuie sa fiti înscris şi conectat pentru a vedea această imagine]

[Trebuie sa fiti înscris şi conectat pentru a vedea această imagine]
Sus In jos
Vezi profilul utilizatorului http://egaming.forumz.ro


Vezi subiectul anterior Vezi subiectul urmator Sus
Pagina 1 din 1

Permisiunile acestui forum:Nu puteti raspunde la subiectele acestui forum
Prima pagina :: eGaminG | • Diverse & Cafenea • :: Jocuri,muzica,filme,Programe-